(navigation image)
Home Audio Books & Poetry | Community Audio | Computers & Technology | Grateful Dead | Live Music Archive | Music, Arts & Culture | Netlabels | News & Public Affairs | Non-English Audio | Podcasts | Radio Programs | Spirituality & Religion | The Shady Trees
Search: Advanced Search
Anonymous User (login or join us)
Upload

Listen to audio

item image
Run time: 34:39

Stream (help[help])

VBR M3U
MP3 via M3U

Play / Download (help[help])

VBR ZIP

Ogg Vorbis

Lossless zip


All Files: HTTPS Torrent (2/0)

Resources

Bookmark

Jonathan SegelJonathan Segel Live at Pappy And Harriet's Pioneertown Palace on 2006-09-09 (September 9, 2006)

something has gone horribly wrong 8-p
Prefer flash? · Embed · Questions/Feedback?


Collection: JonathanSegel
Band/Artist: Jonathan Segel
Date: September 9, 2006 (check for other copies)
Venue: Pappy And Harriet's Pioneertown Palace
Location: Pioneertown, CA

Source: Neumann KM140's ORTF shock-mounted on stand (~10') with DPA windscreens > Beyer MV100 > Sony PCM-M1 > DAT @48KHz
Lineage: DAT > S/Pdif > Focusrite Saffire > Firewire > Macbook > Logic Express v7 > AIFF > Audacity (tracking in 1/75 sec increments) > multiple AIFFs > xACT > FLAC
Taped by: morst
Transferred by: morst
Keywords: Cracker; Camper Van Beethoven; CVB; Pitown; Cramper; Crampout


Description

1. intro
2. Orebro
3. Can't Help It
4. I Love You
5. (hydration banter)
6. Gravity - (Undertow) - Wonder Seeker
7. outtro

Notes

Jonathan Segel
September 9, 2006
Pappy and Harriet's Pioneertown Palace - outdoor stage
Pioneertown CA
2nd Annual Cracker-Camper Van Beethoven Family Reunion Campout
http://www.crackersoul.com/campout/

Source: Neumann KM140's ORTF shock-mounted on stand (~10') with DPA windscreens > Beyer MV100 > Sony PCM-M1 > DAT @48KHz

Transfer: Master DAT > Sony TCD-D100 > Sony RMR-D100 > S/Pdif Coax > Focusrite Saffire > Logic > AIFF > Audacity 1.2.5 (tracking in 1/75 second intervals) > multiple AIFF's > xACT 1.58 > FLAC (level 6)

Taper: TAS aka morst

Personnel:
Jonathan Segel - Violin, Guitar, Keyboard, Sampler, Vocals
Greg Lisher - Guitar, Vocals
John Hanes - Drums
Victor Krummenacher - Bass
Chris Xefos - Keyboard, Vocals
Kenny Margolis - Keyboards

shntool results:
length expanded size cdr WAVE problems filename
1:16.06 13420556 --- -- ---xx jsegel2006-09-09t01.flac
6:23.43 67662380 --- -- ---xx jsegel2006-09-09t02.flac
3:56.70 41795084 --- -- ---xx jsegel2006-09-09t03.flac
4:22.73 46388540 --- -- ---xx jsegel2006-09-09t04.flac
0:53.27 9412748 --- -- ---xx jsegel2006-09-09t05.flac
17:09.42 181614428 --- -- ---xx jsegel2006-09-09t06.flac
0:36.01 6352796 --- -- ---xx jsegel2006-09-09t07.flac
34:38.37 366646532 B (totals for 7 files, 0.5360 overall compression ratio)

-=-=-=-=-=-=-=-=-=-=-=-=-=-=-=-=-=-=-=-=-=-=-=-=-=-=-=-=-=-=-=-=-=-=-
This recording brought to you by the Soundscape Preservation Society
Founded 1991
http://www.iamtypingwithonefinger.com/SPS.html
-=-=-=-=-=-=-=-=-=-=-=-=-=-=-=-=-=-=-=-=-=-=-=-=-=-=-=-=-=-=-=-=-=-=-

Individual Files

Audio Files Flac VBR MP3 Ogg Vorbis
intro 4.2 MB
1.6 MB
806.1 KB
Orebro 34.8 MB
8.5 MB
4.0 MB
Can't Help It 23.3 MB
5.4 MB
2.6 MB
I Love You 25.0 MB
6.1 MB
2.9 MB
(hyrdration banter) 3.3 MB
1.2 MB
562.7 KB
Gravity -(Undertow) - Wonder Seeker 95.0 MB
23.1 MB
11.0 MB
outtro 1.9 MB
813.0 KB
388.4 KB
Image Files JPEG JPEG Thumb
concert photo by TAS 180.7 KB
4.1 KB
concert photo by TAS 161.4 KB
3.9 KB
concert photo by TAS 151.2 KB
3.9 KB
Information FormatSize
jsegel2006-09-09-flac16.ffp Flac FingerPrint 406.0 B
jsegel2006-09-09.ffp Flac FingerPrint 406.0 B
jsegel2006-09-09.md5 Checksums 413.0 B
jsegel2006-09-09_files.xml Metadata [file]
jsegel2006-09-09_meta.xml Metadata 4.0 KB
jsegel2006-09-09_reviews.xml Metadata 533.0 B
Other Files Text Archive BitTorrent
informative textfile 1.9 KB
jsegel2006-09-09_archive.torrent 16.8 KB

Write a review
Downloaded 12,299 times
Reviews
Average Rating: 5.00 out of 5 stars5.00 out of 5 stars5.00 out of 5 stars5.00 out of 5 stars5.00 out of 5 stars

Reviewer: mick dillingham - 5.00 out of 5 stars5.00 out of 5 stars5.00 out of 5 stars5.00 out of 5 stars5.00 out of 5 stars - September 15, 2006
Subject: jonathan rocks
you all know how brilliant i consider jonathan to be and heres more proof a blistering set with a perfect backing band-utterly essentual